Алексей фадеев рыбалка на карпа

Автор

Ловля дикого карпа (Алексей Фадеев) [2013, документальный, рыбалка, WEBRip-AVC]

00:28:48
Год выпуска: 2013

Видео: 720×408 (16:9), 25,000 fps, AVC (x264), High@L3.1

1000 Кbps avg, 0.136 bit/pixel
Аудио: 44,1 kHz, AC3 Dolby Digital, 2 ch (Front: L R),

Общее
Уникальный идентификатор : 220908153355712921400815637812795730955 (0xA6315CDD3AF0CA59B0FAF36E2AF0EC0B)
Полное имя : D:14 янвЛовля дикого карпа.mkv
Формат : Matroska
Версия формата : Version 2
Размер файла : 232 Мбайт
Продолжительность : 28 м.
Общий поток : 1126 Кбит/сек
Дата кодирования : UTC 2014-04-03 18:20:22
Программа кодирования : mkvmerge v6.1.0 (‘Old Devil’) built on Mar 4 2013 09:10:42
Библиотека кодирования : libebml v1.3.0 + libmatroska v1.4.0

Видео
Идентификатор : 1
Формат : AVC
Формат/Информация : Advanced Video Codec
Профиль формата : High@L3.1
Параметр CABAC формата : Да
Параметр ReFrames формата : 8 кадров
Идентификатор кодека : V_MPEG4/ISO/AVC
Продолжительность : 28 м.
Битрейт : 1000 Кбит/сек
Ширина : 720 пикселей
Высота : 408 пикселей
Соотношение сторон : 16:9
Соотношение сторон в оригинале : 16:9
Режим частоты кадров : Постоянный
Частота кадров : 25,000 кадров/сек
Цветовое пространство : YUV
Субдискретизация насыщенности : 4:2:0
Битовая глубина : 8 бит
Тип развёртки : Прогрессивная
Бит/(Пиксели*Кадры) : 0.136
Размер потока : 201 Мбайт (87%)
Библиотека кодирования : x264 core 130 r2273 b3065e6
Настройки программы : cabac=1 / ref=8 / deblock=1:-1:-1 / analyse=0x3:0x133 / me=umh / subme=7 / psy=1 / psy_rd=1.00:0.10 / mixed_ref=1 / me_range=16 / chroma_me=1 / trellis=2 / 8x8dct=1 / cqm=0 / deadzone=21,11 / fast_pskip=0 / chroma_qp_offset=-3 / threads=6 / lookahead_threads=1 / sliced_threads=0 / nr=0 / decimate=1 / interlaced=0 / bluray_compat=0 / constrained_intra=0 / bframes=3 / b_pyramid=2 / b_adapt=2 / b_bias=0 / direct=1 / weightb=1 / open_gop=0 / weightp=2 / keyint=250 / keyint_min=25 / scenecut=40 / intra_refresh=0 / rc_lookahead=50 / rc=abr / mbtree=1 / bitrate=1000 / ratetol=1.0 / qcomp=0.60 / qpmin=0 / qpmax=69 / qpstep=4 / ip_ratio=1.40 / aq=1:1.00
Default : Да
Forced : Нет

Аудио
Идентификатор : 2
Формат : AC-3
Формат/Информация : Audio Coding 3
Расширение режима : CM (complete main)
Параметр Endianness формата : Big
Идентификатор кодека : A_AC3
Продолжительность : 28 м.
Вид битрейта : Постоянный
Битрейт : 128 Кбит/сек
Каналы : 2 канала
Расположение каналов : Front: L R
Частота : 44,1 КГц
Битовая глубина : 16 бит
Метод сжатия : С потерями
Размер потока : 26,4 Мбайт (11%)
Default : Да
Forced : Нет

Источник: myklad.org

Английская донка с Алексеем Фадеевым

«Приструнить его!», «Иди сюда, зверюга!», — это не кадры боевика. Это Алексей Фадеев ловит карпа на коммерческом водоеме Подмосковья на английскую донку. Во время просмотра этого фильма есть серьезная опасность получить изрядную дозу драйва, а также попытаться повторить рыбацкую историю Алексея.

Хорошая рыбалка начинается с прикормки: смотрим «убойный» рецепт от Алексея. Кроме того, от известного эксперта мы узнаем: какие снасти он решил применить для этой рыбалки, на выборе какой оснастки для английской донки остановился, почему отдал предпочтение кормушке именно такой формы, и какую насадку карп предпочел сегодня.

Динамичная картинка, эффектный звукоряд, потрясающий воображение улов (да что там, неподъемный улов!) — за всем этим не пропустите три ценных совета для тех, кто в ближайшее время собирается с фидером на коммерческий водоем.

На самом деле, в этом фильме советов по ловле английской донкой прозвучало гораздо больше. А наибольшую ценность представляет рекомендация эксперта почаще практиковаться с фидером на разных водоемах и пытаться ловить разную рыбу. А Алексей Фадеев будет нам в этом помогать.

Интересно, под силу ли кому-нибудь повторить успех Алексея на платнике?

Ловля на английскую донку (фидер) с Алексеем Фадеевым

Серию можно выбрать, нажав символ меню в левом верхнем углу.

Источник: club-fish.ru

Алексей фадеев рыбалка на карпа

Начну по порядку, с прикормочных приёмов. Секрет первый: так как чаще всего мне приходиться ловить дикого карася на лесных озёрах и прудах, где донный грунт имеет заиленную основу разной плотности я понял, что лучшей цветовой гаммой по фидерной прикормке будет та, что полностью соответствует цвету ила на дне, то есть землисто-зеленоватой или даже чёрной. Дикий карась очень хорошо видит под водой, о его зоркости сложено не мало рыболовных баек и легенд, особенно крупные особи в солидном возрасте очень негативно и, главное, с опаской реагирует на любую неестественность в цвете. Контрасты им совершенно не по вкусу, даже если в корме горы вкусного по виду и запаху такие рыбины ни за что не рискнут вкусить с такого странного для них по цвету кормового стола. Поэтому, оттенок корма должен быть максимально натуральным и это правило распространяется совершенно на любой тип дна, на котором я пытаюсь ловить карасей. Для того, чтобы довести свой фидерный корм до идеальной цветовой гаммы я использую специальные порошковые красители, которые создаются многими производителями рыболовных прикормочных смесей. Лидерами моего красящего арсенала уже много лет являются красители от «Sensas» и «Browning», обычно 5 мг такого красителя способны покрасить до 3 кг сухой смеси.

Теперь мой секрет номер два, также связанный с фидерной прикормкой. Одним из очень эффективных спортивных кормовых приёмов, от которого сходят с ума многие виды белых рыб, включая карасей — это использование в качестве добавки в корм специальных флуоресцентных сухарей ярко красного и жгучего жёлтого цветов. Производят их несколько европейских компаний, специализирующихся в области производства профессиональных прикормок для рыбной ловли. Чем же так хороши эти светящиеся сухарики? Все дело в том, что на фоне тёмного дна, в условиях ловли на глубине или в мутной воде они реально мерцают и переливаются даже от слабых ультрафиолетовых лучей, создавая тем самым эффект активного, можно сказать живого, ковра на дне. Я не рыба, и мне не понять почему караси, карпы и лещи так любят эти светящиеся частицы, но факт остаётся фактом, рыба не только приплывает на точку, где есть эта секретная добавка, поглядеть на игру мерцающих точек, но и с удовольствием поесть их. Насытиться чешуйчатые этими цветными частичками никогда не смогут, так как у сухариков нулевая питательная ценность, соответственно, объем поглощённого не уменьшит их голод, возникающие в связи с этим паника и пищевой ажиотаж становятся причиной потери страха. Голодные рыбки, в буквально смысле, начинают глотать все, что только похоже на еду в том месте, где рассыпаны сухарики, естественно, на этом фоне в их рты с большим аппетитом пролетает любая насадка, посаженная предварительно на крючок. Вот именно поэтому я щедро и сыплю флуоресцентные сухари в прикормку, обычно на три килограмма сухой смеси у меня уходит по горсти жёлтых и красных сухариков. Попробуйте, это действительно работает.

Сухофрукты, клубника, анис и ваниль

Мой третий секрет был найден в той же кулинарной рыболовной теме, которую я, собственно, и считаю главной в ловле карасиков. Вообще, переловив не одну сотню карасиков на фидерную снасть, я понял, что самыми лучшими ароматами и вкусами для прикормок, срабатывающими практически всесезонно по этому виду рыб, были и будут сухофрукты, клубника, анис и ваниль. Причём, их можно использовать по отдельности друг от друга, а также и миксовать между собой. Сейчас на современном рыболовном рынке есть широкий выбор разных ароматизаторов и аттрактивных добавок, имеющих именно такую вкусовую и ароматическую составляющую, соответственно, поиграться и поэкспериментировать есть с чем. В моей практике очень хорошо зарекомендовали себя сухие и жидкие добавки от «Sensas» и «VDE», поэтому советую обратить именно на них внимание.

Зерновая конопля и кастеры

Мой четвёртый приём завершает подготовку моей прикормочно-насадочной программы. Я считаю его очень важным и актуальным в фидерном применении именно по трофейным карасям, ведь его сила воздействия уже помогла мне выхватывать из водной пучины по-настоящему огромных карасей в весе от килограмма и более. Я долгое время искал безотказные кормовые компоненты, увеличивающие фактор частоты качественных поклёвок, мне хотелось прийти к тому, чтобы научиться фильтровать крупные карасёвые особи от мелких, предпочтительнее в сторону крупных. Перепробовав массу классических насадочных вариантов, которые всем известны, я нашёл две очень необычные позиции, которые практически не используются нашими рыболовами. Этими позициями стали крупная консервированная конопля, которая используется в классическом карпфишинге и кастеры – окуклившиеся личинки опарыша. Из опыта скажу, что тот же дикий карась всегда проявляет чрезвычайную избирательность в насадках, даже если он отреагировал на предложенную прикормку и крутиться в точке, то по каким-то необъяснимым причинам не готов есть то, что мы насадили на крючок или клюёт избирательно. Второй вариант — он активно клюёт, но в очень мелком, ладошечном, размере. Прочувствовав на своей шкуре эти оба варианта я продолжал эксперименты с насадками, выискивая новые комбинации для соблазнения крупной осторожной рыбы и, как оказалось позже, применение конопли и кастеров сотворили настоящий фурор и переворот в моих карасёвых подвигах с фидером.

Просто я не поленился попробовать ловить на чистую коноплю, предлагал её карасикам в разных насадочных бутербродах, в тандемах с традиционными насадками в виде подсаженной к ней личинки мотыля или кусочка червя. Также, я позаботился и о том, чтобы на моих крючках оказался кастер как в чистом виде, так и в бутербродах с другими известными насадками. Такие пробы и эксперименты изменили и мои итоговые результаты по карасю, просто мне стала чаще попадаться крупная рыба карасёвого племени. Я не знаю как это объяснить, но это работает, возможно, из-за того, что консервированная пророщенная конопля как-то особенно пахнет, а кастеры медленно погружаются или даже плавают, что, само по себе, может как-то радовать рыбу. Попробуйте мой секрет может и у вас сработать.

Кормлю над дном и ловлю на грузики

Последний, пятый, секрет, с которым я с лёгкостью распрощаюсь и сделаю его достоянием масс, связан с тактическим подходом в карасёвой рыбалке. В исполнении его есть два очень важных последовательных шага, которые нужно выполнять очень внимательно. Итак, практически все доночники-карасятники чаще всего ловят рыбу на илистом типе дна, по классике карасики любят покопаться в илу в поисках пищи, вот поэтому тут его и ловят. Собственно, так делаю и я, но только делаю это особенно. Для того, чтобы в максимальной степени увеличить шансы на привлечение и поимку рыбы я вначале применяю особую технику приваживания карасей.

Суть моей техники — вытряхивать корм из кормушки непосредственно над дном, до её падения. В таком виде практически вся прикормка выкладывается поверх ила, а не в нем, соответственно, обнаружить прикормку рыбе будет намного проще и копаться в илу ей не нужно будет. Как я это делаю: сначала определяю на какой счёт кормушка вместе с кормом падает на дно в заранее найденной точке лова, например, на счёт пять. Далее, после следующего заброса оснастки, на счёт «четыре», в процессе погружения кормушки, в её подводном полете я делаю резкий одиночный рывок бланком вверх, после которого корм выходит строго над дном, но рывок должен быть только одиночным, а не серийным, чтобы не размазывать корм по дну. Для обеспечения полноценного вылета корма из кормушки моя прикормка имеет среднеувлажненную структуру, и я её не сильно зажимаю в кормушке.

Обычно, процедура прикармливания точки для карасей состоит из 15 забросов, из которых три на дне, а 12 — над дном. Далее, я отстёгиваю от фидерной оснастки кормушку и ставлю на её место грузик малого веса, например 7 или 14 грамм, прикрепляю к оснастке метровый поводок, заряжаю крючок насадкой и отправляю в точку лова оснастку с грузиком. Преимущество грузика перед кормушкой заключается в том, что при падении и погружении он практически не шумит, не проваливается в ил после падения и на перезабросе легче выходит из илистого дна, практически не взмучивая его. Мои любимые груза делает английская компания «GURU», с ними я брал очень хитрых ленивых карасиков, которые любят кушать с поверхности ила. Ловля на легкий груз дает мне возможность ловить аккуратных рыбин, которые очень восприимчивы к лишним шумам и движению под водой, да и, кстати, в зависимости от клева я периодически меняю грузик на кормушку и делаю серию из трёх, четырёх забросов, вытряхивая корм, опять же, над дном. Приблизительно один раз в час по одной серии, то есть практически вся фидерная рыбалка ведётся на грузик.

Источник: www.sportfishing.ua

Ловля карпа весной на фидер Алексей Фадеев видео «Рыболовная школа»

Фильм про весеннюю ловлю карпа на фидер от Алексея Фадеева. Описывается общий подход к весенней рыбалке: прикормка, наживка, выбор кормушки для фидера, как делать заброс, дипование, процессловли и т.д.

Ловля карпа весной на фидер Алексей Фадеев Часть 2 видео «Рыболовная школа»

Фильм про весеннюю ловлю карпа на фидер от Алексея Фадеева. Описывается общий подход к весенней рыбалке: прикормка, наживка, выбор кормушки для фидера, как делать заброс, дипование, процесс ловли и т.д.

Стартовый закорм — Ловля на фидер для начинающих видео

Стартовый закорм — Ловля на фидер для начинающих видео «Азбука фидерной ловли» с Олегом Квициния смотреть онлайн в хорошем качестве вы можете на нашем сайте. Приятного просмотра!

Наживки и насадки — Ловля на фидер для начинающих видео

Наживки и насадки — Ловля на фидер для начинающих видео «Азбука фидерной ловли» с Олегом Квициния смотреть онлайн в хорошем качестве вы можете на нашем сайте. Приятного просмотра!

Крючки и поводки — Ловля на фидер для начинающих видео

Крючки и поводки — Ловля на фидер для начинающих видео «Азбука фидерной ловли» с Олегом Квициния смотреть онлайн в хорошем качестве вы можете на нашем сайте. Приятного просмотра!

Кормушки для фидерной рыбалки — Фидер для начинающих видео

Кормушки для фидерной рыбалки — Ловля на фидер для начинающих видео «Азбука фидерной ловли» с Олегом Квициния смотреть онлайн в хорошем качестве вы можете на нашем сайте. Приятного просмотра!

Каша для фидерной рыбалки — Фидер для начинающих видео

Каша для фидерной рыбалки — Ловля на фидер для начинающих видео «Азбука фидерной ловли» с Олегом Квициния смотреть онлайн в хорошем качестве вы можете на нашем сайте. Приятного просмотра!

Аксессуары для фидерной ловли — Полезные рыболовные мелочи видео

Аксессуары для фидерной ловли — Полезные рыболовные мелочи — Фидер для начинающих видео «Азбука фидерной ловли» с Олегом Квициния смотреть онлайн в хорошем качестве вы можете на нашем сайте. Приятного просмотра!

Организация рабочего места для ловли на фидер видео

Организация рабочего места для ловли на фидер — Ловля на фидер для начинающих видео «Азбука фидерной ловли» с Олегом Квициния смотреть онлайн в хорошем качестве вы можете на нашем сайте. Приятного просмотра!

Монтаж фидерной оснастки — Основные монтажи для фидера видео

Монтаж фидерной оснастки — Ловля на фидер для начинающих видео «Азбука фидерной ловли» с Олегом Квициния смотреть онлайн в хорошем качестве вы можете на нашем сайте. Приятного просмотра!

Источник: www.prospinning.ru

Весенний карп (Алексей Фадеев) [2014, документальный, рыбалка, WEBRip]

Перевод: Не требуется
Субтитры: отсутствуют
Формат: WEBRip, AVI, XviD, MP3
Страна: Россия
Режиссер: Алексей Фадеев
Жанр: документальный, рыбалка
Продолжительность: 00:33:31
Год выпуска: 2014

Описание: Весенний карп.

Видео: 720 x 408 (1.778), 25 fps, XviD MPEG-4, 1998 Кбит/сек, 0.272 bit/pixel
Аудио: 44,1 КГц, MPEG Layer 3, 2 канала, 128 Кбит/сек

Общее
Полное имя : E:РаздачиВесенний карп.avi
Формат : AVI
Формат/Информация : Audio Video Interleave
Размер файла : 512 Мбайт
Продолжительность : 33 м.
Общий поток : 2136 Кбит/сек
Программа кодирования : VirtualDubMod 1.5.10.3 | www.virtualdub-fr.org || (build 2550/release)
Библиотека кодирования : VirtualDubMod build 2550/release

Видео
Идентификатор : 0
Формат : MPEG-4 Visual
Профиль формата : Advanced Simple@L5
Параметр BVOP формата : 2
Параметр QPel формата : Нет
Параметр GMC формата : Без точки перехода
Параметр матрицы формата : Default (H.263)
Идентификатор кодека : XVID
Идентификатор кодека/Подсказка : XviD
Продолжительность : 33 м.
Битрейт : 1998 Кбит/сек
Ширина : 720 пикселей
Высота : 408 пикселей
Соотношение сторон : 16:9
Частота кадров : 25,000 кадров/сек
Цветовое пространство : YUV
Субдискретизация насыщенности : 4:2:0
Битовая глубина : 8 бит
Тип развёртки : Прогрессивная
Метод сжатия : С потерями
Бит/(Пиксели*Кадры) : 0.272
Размер потока : 479 Мбайт (94%)
Библиотека кодирования : XviD 73

Аудио
Идентификатор : 1
Формат : MPEG Audio
Версия формата : Version 1
Профиль формата : Layer 3
Идентификатор кодека : 55
Идентификатор кодека/Подсказка : MP3
Продолжительность : 33 м.
Вид битрейта : Постоянный
Битрейт : 128 Кбит/сек
Каналы : 2 канала
Частота : 44,1 КГц
Метод сжатия : С потерями
Размер потока : 30,7 Мбайт (6%)
Выравнивание : Разделение по промежуткам
Продолжительность промежутка : 40 мс. (1,00 видеокадр)
Время предзагрузки промежутка : 500 мс.
Библиотека кодирования : LAME3.99r
Настройки программы : -m s -V 4 -q 2 -lowpass 17 -b 128

Источник: myklad.org

Алексей фадеев рыбалка на карпа

Также, мне нравится кинуть себе конкретный тактический вызов: ловить на дальней или предельно короткой для фидера дистанции, использовать только определённую группу нетрадиционных насадок или ловить карпиков лёгкой пикерной снастью. За одну такую фидерную тренировку я могу отрабатывать как одну, так и несколько рыболовных задач, выполняя которые я улучшаю своё персональное мастерство и навыки владения современной донной снастью. В этой статье расскажу о некоторых своих приёмах по ловле спортивного некрупного карпа. Я уверен в актуальности этой темы, ведь в этом году чемпионат мира по фидерной ловле пройдёт в ЮАР, где основной призовой рыбой является карп, с помощью которого и будут делаться основные призовые веса.

Если я нацеливаю себя на спортивную и, при этом, результативную рыбалку, то в обязательном порядке готовлю очень особенную прикормочную программу. Мой фидерный корм, подобно комплексному обеду, всегда состоит из нескольких блюд. На перовое у меня практически всегда сложный микс из зерновых, разнообразного рыбного пеллетца и гранул, на второе — пару килограмм классической карповой полисмеси и на третье, в качестве десерта — набор живых компонентов. Ну и конечно, нельзя забывать про обеденный компот — в моем карповом арсенале всегда имеются несколько специализированных добавок или жидких, или сухих, на которые я возлагаю эту миссию. Ими я буду пытаться создать основную вкусовую и ароматическую линию своей рабочей прикормки.

Первое, основное, питание подаётся в точку с помощью специальной прикормочной ракеты, но не в полном объёме и сразу, а с некоторым временным интервалом и порционно, например по десять — пятнадцать кормовых забросов в час. Второе лакомство нужно будет растянуть на всю рыбалку, именно оно будет каждый раз вместе с небольшим количеством живых компонентов, которых я называю десертом, поставляться в точку лова в течении всей рыболовной сессии. Ну, а аттрактивный компот, также как и второе блюдо, будет сыпаться и литься внутрь кормушек или поверх моих прикормок в процессе всей рыбалки. Его задача привлечь и удерживать своим ароматом и вкусом рыбу в точке лова.

Я убеждён в том, что для достижения весомого результата в садке после карповой рыбалки нужна предельно точная подача корма и оснастки в течении всей рыболовной сессии, особенно, если ловить приходится в жёсткой спортивной конкуренции. Наверное, именно поэтому я проповедую принцип: чем точнее кидаю кормушку, тем чаще случаются поклёвки и крупнее ловиться рыба. Поэтому, тренируя свои профессиональные навыки, приезжая на коммерческий водоём в воскресные дни, когда берег уже гудит от суеты конкурентов-доночников, я выбираю рыболовное место на самом загруженном рыболовами береге. Оказавшись в гуще событий я устанавливаю свой рыболовный ящик в самое неперспективное, обычно ни кем не занятое место, чтобы доказать, что даже здесь, в этом, на первый взгляд, провальном рубеже с правильным подходом можно стать чемпионом. Определённо, в таком болоте я хочу доказать сам себе, что моя техника и меткость способны сделать меня лидером такого негласного соревнования. Помогают мне в этом не простом деле кормушки «пули», которые я чаще всего использую в карповой ловле. Вообще, кормушки со смещённым центром тяжести реально быстрее и точнее летят, пробивая любой встречный или боковой ветер, они подобно снайперским пулям поражают мишени на любых дистанциях, даже в маленьком весе эти создания способны преодолевать большие расстояния, доставляя корм и оснастку в заветные точки, где плавают наши карпики. Исходя из этого, на карповую рыбалку я беру с собой десяток кормушек «пуль» разного веса от 10 до 80 грамм, в зависимости от дистанции, которую нужно преодолеть.

Богатый выбор спортивных насадок

Также, я абсолютно убежден: чем обширнее и богаче ассортимент моих карповых насадок на каждую конкретную фидерную рыбалку, тем больше вероятность в том, что мне удастся заставить клюнуть практически каждую приплывшую в мою точку рыбу. Поэтому на моем рыболовном столике всегда разложено щедрое ассорти из насадочных вкусностей: консервированная кукуруза, разноцветный опарыш разного размера, ошпаренные личинки опарыша, кастеры, навозные черви, крупный мотыль, насадочный пеллетц 4 и 6 мм, минибойлы, ароматизированная ветчина, хлеб для сендвичей. Все эти лакомства должны быть первоклассного спортивного качества, то есть такие же отменные и свежие если бы я использовал их на соревнованиях. Такой буржуйский арсенал приманок позволяет мне в течении всего рыболовного дня подыскивать абсолютно безотказно работающие насадочные комбинации и ловить самых капризных несговорчиков карпиков.

Много различных поводков

Обильная насадочная программа предполагает, что в моих фидерных поводочницах будет масса разноперых поводков с соответствущими моим наживкам крючками, способных в максимальной степени естественно и натурально подать карпикам ключевые лакомства, качественно просечь их губы и выдержать, не сломавшись и не согнувшись под напором бойких рыбин. Поэтому, на свою карповую рыбалку я беру с собой до сотни поводков как разной длины, так и разнообразных диаметров и классов поводочной лески. Естественно, все они оснащены крепкими и острыми крючками, опять же, разного размера, разной формы под все типы моих насадок. В моих поводочницах есть пять типов карповых поводков. Первые поводки длинной от 40 до 100 см из лески 0.14 — 0.16 мм с бронзовыми спортивными крючками «0wner» серии 56536 14 и 12 номеров ими я ловлю аккуратных карпиков в весе от 500 грамм до 2 кг, когда в виде насадки используется крупный мотыль, червь, кастеры и опарыш. Вторые, рабочие поводочки для рыбы в весе от килограмма до трех, которая сходит с ума от консервированной кукурузы, но, при этом, боится крупных размеров насадок, я использую готовые 70 см от «owner» на леске 0.18 мм в серии Rl-330 с желтенькими крючками 8 и 6 номеров. Третьи поводки длинной в 50 cм из лески 0.22 связаны мной для прожорливых жадин, которые готовы есть все без разбора и страха, тут я не мельчу с крючками — использую острющие убойные «owner Сt-4» в восьмом номере европейского размера, с ними я смело тягаю рыбу до 7 кг. Четвёртые для разборчивых трофейных рыбин, уже побывавших на крючке — это 80 см поводки, сделанные из фтороуглеродной лески 0.16 и 0.20 мм с крючками «owner Ct-5» в восьмом размере. Ну и пятые, мои поводочки чисто для насадок, подающихся на волосе: минибойлы и ветчина. Для них я использую готовые поводки из качественной лески с волосом от «GURU».

Безопасная оснастка «Running feeder»

Моей любимейшей оснасткой для ловли карпов на фидерную снасть уже много лет является «running feeder» (скользящая кормушка). Вы спросите, почему именнно с ней я ловлю карпиков, а не выбираю какой-то другой фидерный монтаж. Отвечу: «running feeder» — единственная безопасная для рыб оснастка, которую я знаю и именно поэтому только её разрешают использовать на международных соревнованиях по фидерной ловле. Фактор безопасности особенно актуален при ловле трофейных рыбин, ведь об их сохранности ратует всемирное сообщество профессиональных рыболовов, популяризирующих принцип «поймал – отпустил». Безопасность «running feeder» предусмотрена самой конструкцией и функциональностью — если по каким-то причинам на вываживании рыбы леска оборвётся выше рабочей кормушки, то за счёт её свободного, беспрепятственного хода по леске чешуйчатое создание своим весом вытянет этот свободный оборванный кусок лески, а кормушка останется на дне. От крючка на поводке с остатками оборванной лески рыбка быстрее освободится и не погибнет, а если бы кормушка осталась, то скорее всего рыбу бы ждала неминуемая гибель. Также, не мало важно то, что в оснастке «running feeder» рыба под водой не чувствует веса кормушки за счет, опять же, свободного хода кормушки на леске, что само собой гарантирует более качественный заглот насадки, глубокое попадание крючка в рот рыбе, следовательно, отменные засечки на подсечках, соответственно минимум сходов на вываживании. У оснастки «running feeder» есть несколько модификаций или, так называемых, доработок, в основном абгрейд делается в случаях, когда приходится ловить на заиленных участках или там, где много водорослей на дне, тогда монтируется дополнительный отвод для кормушки из лески или материала, используемого для изготовления ледкоров. Отвод на данной оснастке может быть и два сантиметра, и двадцать два в зависимости от глубины ила и высоты подводных водорослей. На коммерческих водоемах я чаще всего ловлю классической оснасткой «running feeder», которая формируется на моей основной леске. Делается она так: в двойной вертлюжок маленького шестнадцатого размера провожу крупный поплавочный стопор, стягиваю его по леске на 50 см, после на отрезке лески формирую 15-ти см скрутку с петелькой в начале, фиксирую её узлом «восьмёрка». Буферный стопор стягиваю к узлу. Оснастка готова. Отмечу один момент, у этой оснастки нет заднего стопора, блокирующего движение кормушки при поклёвке, самозасечки не будет, то есть ответственность за просечку рыбы ложится на самого рыболова, кстати, в этом и отображаются спортивный и, при этом, безопастный элемент «running feeder».

Тактика постоянной игры с запахом, вкусом и цветом насадки

Ну и напоследок я расскажу вам о своей особой кулинарной тактике при ловле на коммерческих водоёмах. Годы практики с фидерной снастью на разнообразных платниках России и ближнего зарубежья дали мне чёткое понимание того, что для стабильной и уверенной ловли карпуш, особенно трофейного размера, нужно постоянно играть со вкусом и запахом своих насадок. Очень ярко я ощутил работу этого принципа на водоёмах, где проповедуется принцип «поймал – отпустил», где рыба, которая хотя бы раз побывавшая на крючке, уже имеет некую память относительно той насадки и того запаха, на который она когда-то соблазнилась и клюнула. В условиях прессинга, когда рыболовы окучивают акваторию коммерческого водоёма через каждые десять метров эта тактика так же незаменима, я считаю, что чем насыщенней, богаче вкусовая палитра насадочных дипов, бустеров и спреев, тем выше шанс поймать самых искушенных, умных карпов. Поэтому, мой, и не без этого, царский стол насадок украшен королевским ассортиментом усилителей клёва.

Среди них красуются практически вся линейка спреев «Sensas Bombix» среди них в лидерах: Garlic, Perches, Monster Crab, Halibut, Vanille, Spicy, Krill. Есть и особые красящие дипы «Sensas Crazy Baits Juice», которые покрывают насадку особой водорастворимой краской, пахнущей невероятно вкусно: Red Strawberry и Yellow Fishmeal. В процессе своей фидерной рыбалки я постоянно играю как с видом насадки, так и её запахом, такой ароматической игрой я привлекаю самых капризных карпиков вкусить моих насадок и, поверьте, рыба здорово откликается. Помимо этой батареи насадочных дипов мой арсенал карповых вкусняшек усиливают особые аттрактивные гели нового поколения «GOO», ими я стал пользоваться только в прошлом году, сумев поставить личные рекорды 2012, именно по крупным карпам на фидерную снасть.

Аттрактанты «GОО» — это новый революционный продукт, созданный известным профессиональным Лоутжие Льюсом из Южноафриканской республики. Этот известный у себя на родине рыболов, который, кстати, по образованию еще очень серьезный химик, много лет подбирал рецепт уникальной аттрактивной добавки для ловли карпов. Перед ним стояла задача создать продукт, способный привлекать карпов практически на всех типах водоёмов во все сезоны, включая ловлю в холодной воде. Первые тестовые проверки в реальных полевых условиях были проведены нацианальной сборной ЮАР по карпфишингу на двух Чемпионатах Мира, результат был просто впечатляющий, сборная всегда отрывалась вперёд как по количеству пойманных хвостов, так и по качеству трофеев и в этом им помогали аттрактивы «GOO».

Если говорить конкретно, то аттрактив представляет собой гелеобразную тягучую массу, которую можно нанести на насадку, внутрь кормушки, обмазать ПВА стик или даже нанести его поверх обычного рыболовного грузика. За счёт усиленной клейкости самого геля, он хорошо обвалакивает тот объект, на который его нанасят и, соотвественно, не сваливается и не стекает. При попадании в воду гель «GOO» начинает медленно растворятся, образуя облако вокруг того объекта на который его нанесли, внешне это выглядит очень потрясно, подобно крутящемуся дыму или мини облаку, вот за это рыболовы стали называть его вкусным дымом, наверное, именно поэтому такое название и решил нанести на упаковку сам создатель чудо геля «GOO». В линейке есть шесть вкусов, все их я еще не попробовал, но вот знаменитую курузу и ананас я обкатал в полной мере, карпики от них сходят с ума. Да, и, кстати, передозировку гелями «GOO» сделать нельзя, как говорится лей и намазывай сколько хочешь, в зависимости от того интересны они рыбе или нет.

Я убеждён на сто процентов, что качественная фидерная рыбалка на карпов в условиях серьёзного прессинга возможна при соблюдении правила естественной и при этом уникальной подачи насадки на крючке и чем вкуснее, натуральнее и даже симпатичнее на вид она будет, тем чаще будут поклёвки и тяжелее садки в конце рыбалки.

Увидимся на фидерных рыбалках, до новых встреч друзья!

Источник: www.sportfishing.ua

Рыбалка в Донецкой области — ловля на фидер карпа с Алексеем Фадеевым

На рыбалку в Донецкую область Алексей Фадеев приехал с целью ловли карпа на фидер. Водоем Донецкой области для рыбалки, куда пригласили известного рыболова друзья с Украины, находится в восемнадцати километрах от города Донецк. Это поселок Андреевка — культурное хозяйство, рыбацкая деревня.

Довольно известный водоем большой площади, более 20 гектаров с разнообразным видовым составом рыбы. Здесь есть плотва, красноперка, щука, карась, окунь, белый амур и разнокалиберный карп, как по массе так и по породе. То есть достаточно богатая фауна.

Цель Алексея — целенаправленная ловля на фидер карпа.

Прикормка для карпа

Любая карповая рыбалка начинается с процесса приготовления особой прикормочной смеси. Для того чтобы отсечь мелкую рыбу, он будет использовать только крупную фракцию в виде пелетса и консервированной кукурузы.

На этой рыбалке, рыболов будет применять два вида обогащенного зернового пелетса со вкусом клубники и скопикса. В качестве особого стимулятора клева использует продукт от компании Sensas — IM5 Betaine Green. Он создан специально, чтобы успешно ловить карпа, леща и линя на заиленных водоемах.

Оснастка для ловли карпа на заиленных водоемах

На рыбалке в Донецкой области, Алексей планирует использовать на фидере весьма особенную оснастку для ловли карпа.

Все дело в том, что донный грунт водоема в Андреевке, чрезвычайно заилен и замусорен растительностью. Соответственно наличие таких негативных факторов стимулирует его применять весьма особенный, нетрадиционный фидерный монтаж.

Принцип работы такой оснастки: длина отвода, который делается из флюорокарбоновой лески, должна быть больше в два раза глубины ила в точке лова.

Детали оснастки Running feeder:

  • двойной вертлюжок;
  • буферная бусина;
  • еще один двойной вертлюг;
  • и на основной леске блокирующий поплавочный стопор.

Далее формируется, из флюорокарбона 0.26 мм диаметром, скрутка, снова ставится вертлюжок с застежкой и собственно сама кормушка.

В данном месте водоема русло от берега находится на расстоянии двадцати шести метров, поэтому нужно использовать фидерную кормушку более двадцати граммов. Алексей использует не имеющую отверстий кормушку «Стакан» от компании Vegas весом в тридцать граммов. Такими кормушками очень хорошо вытряхивается прикормка над илом. Иначе говоря, можно не ожидать покуда вершина удилища отыграет и когда кормушка упадет на дно, а именно вытряхивать ее над дном. Тогда фактор завязания фидерной кормушки в ил будет минимальным.

Такие фидерные оснастки Running feeder, очень эффективны не только в условиях ловли, где есть ил, но и там где имеется много водорослей на дне. Английской донкой можно запросто ловить рыбу в водорослях, тогда отвод может достигать более сорока сантиметров.

Источник: fishingkalina.ru

Ловля карпа весной на фидер Алексей Фадеев видео «Рыболовная школа»

Фильм про весеннюю ловлю карпа на фидер от Алексея Фадеева. Описывается общий подход к весенней рыбалке: прикормка, наживка, выбор кормушки для фидера, как делать заброс, дипование, процессловли и т.д.

Ловля карпа весной на фидер Алексей Фадеев Часть 2 видео «Рыболовная школа»

Фильм про весеннюю ловлю карпа на фидер от Алексея Фадеева. Описывается общий подход к весенней рыбалке: прикормка, наживка, выбор кормушки для фидера, как делать заброс, дипование, процесс ловли и т.д.

Стартовый закорм — Ловля на фидер для начинающих видео

Стартовый закорм — Ловля на фидер для начинающих видео «Азбука фидерной ловли» с Олегом Квициния смотреть онлайн в хорошем качестве вы можете на нашем сайте. Приятного просмотра!

Наживки и насадки — Ловля на фидер для начинающих видео

Наживки и насадки — Ловля на фидер для начинающих видео «Азбука фидерной ловли» с Олегом Квициния смотреть онлайн в хорошем качестве вы можете на нашем сайте. Приятного просмотра!

Крючки и поводки — Ловля на фидер для начинающих видео

Крючки и поводки — Ловля на фидер для начинающих видео «Азбука фидерной ловли» с Олегом Квициния смотреть онлайн в хорошем качестве вы можете на нашем сайте. Приятного просмотра!

Кормушки для фидерной рыбалки — Фидер для начинающих видео

Кормушки для фидерной рыбалки — Ловля на фидер для начинающих видео «Азбука фидерной ловли» с Олегом Квициния смотреть онлайн в хорошем качестве вы можете на нашем сайте. Приятного просмотра!

Каша для фидерной рыбалки — Фидер для начинающих видео

Каша для фидерной рыбалки — Ловля на фидер для начинающих видео «Азбука фидерной ловли» с Олегом Квициния смотреть онлайн в хорошем качестве вы можете на нашем сайте. Приятного просмотра!

Аксессуары для фидерной ловли — Полезные рыболовные мелочи видео

Аксессуары для фидерной ловли — Полезные рыболовные мелочи — Фидер для начинающих видео «Азбука фидерной ловли» с Олегом Квициния смотреть онлайн в хорошем качестве вы можете на нашем сайте. Приятного просмотра!

Организация рабочего места для ловли на фидер видео

Организация рабочего места для ловли на фидер — Ловля на фидер для начинающих видео «Азбука фидерной ловли» с Олегом Квициния смотреть онлайн в хорошем качестве вы можете на нашем сайте. Приятного просмотра!

Монтаж фидерной оснастки — Основные монтажи для фидера видео

Монтаж фидерной оснастки — Ловля на фидер для начинающих видео «Азбука фидерной ловли» с Олегом Квициния смотреть онлайн в хорошем качестве вы можете на нашем сайте. Приятного просмотра!

Источник: www.prospinning.ru