Скачать видео ловля карпа торрент

Автор

Скачать видео ловля карпа торрент

Название: Современная и Подводная ловля Карпа Оригинальное название: UNDERWATER carp fishing Год выпуска:2007 Жанр: Учебный рыболовный фильм Выпущено: Великобритания Качество: DVDRip Видео: XVID 640×480 25.00fps 44100Hz Аудио: MPEG Audio Layer 3 48000Hz stereo 128Kbp Размер: 14,3 ГБ 6 фильмов по 2 части Продолжительность: 26:00:00 Перевод: Профессиональный, Одноголосый О фильме: Главная тема фильма — карп и все что связано с охотой на него — снасти, наживка, повадки.

Скачать фильмы о ловле карпа бесплатно. Главная · Вести с водоёмов · Статьи о рыбалке · Видео о рыбалке онлайн; Онлайн ТВ о рыбалке. 555HFTV.

Скачать фильмы Современная и Подводная ловля Карпа.6серий — ТОРРЕНТИНО — торрент трекер — бесплатно DVDRip

Скачать Подводная ловля карпа 2007 — ТОРРЕНТИНО — торрент трекер — бесплатно DVDRip

Рыбалка и охота » Скачать торрент Ловля карпа фидером на платнике ( Дмитрий Салапин) [2013, документальный, рыбалка, WEBRip].

Обсуждаем.критикуем фильмы о фидерной ловле. Кто хочет может скачать весь сборник на торрент трекере по этой ссылке: Для тех кто не может скачать фильмы Летний карп на фидер и Ловля весеннего.

Торрент трекер ТОРРЕНТИНО — скачайте Подводная ловля карпа 2007 через Перевод: Одноголосый закадровый, профессиональный фильм 1, ч.

Часть 11 Универсальный волос — русское ноу-хау +бонус Мировой рекорд в ловле карпа — 34 кг. Качество фильма неважное, зато уроки очень даже.

Оригинальное название: State of the Art Underwater Carp Fishing (f. 1-6 ) Год выпуска: 2004 Жанр: Рыболовство, обучающий Продолжительность: 12х

1:50:00 Режиссер: Денни Фаирбрасс/Корда В ролях: Денни Фаирбрасс, Ник Хэллер Описание: “Korda” всегда была заинтересована в том, чтобы рыбаки получали как можно больше информации не только о снастях и оборудовании, но и о жизни и повадках карпа в естественных условиях обитания.

Источник: glamarchive.weebly.com

Рыбалка нового поколения. Ловля карпа (Сергей Попов) [2013, документальный, рыбалка, WEB-DLRip]

Перевод: Не требуется, субтитры: отсутствуют
Формат: WEB-DLRip, AVI, XviD, MP3
Страна: Украина
Режиссер: Сергей Попов
Жанр: документальный, рыбалка
Продолжительность: 00:50:55
Год выпуска: 2013

Описание: Сюжет видео приложения к иллюстрированному альбому о современной рыбалке «Рыбалка нового поколения — Nехt Gеnеrаtiоn Fishing». Сюжет посвящен ловле карпа и амура в коммерческом водоеме.
Действие происходит на озере «Медвежка» В Донецкой области, Украина.

Видео: 720х408 (1.76:1), 25 fps, ATI YVU12 4:2:0 Plаnаr

2099 kbps аvg, 0.286 bit/piхеl
Аудио: 44.100 kHz, MPEG Lауеr 3, 2 сh,

Общее
Полное имя : D:Lоvliа_Kаrpа.WEB-DLRip.аvi
Формат : AVI
Формат/Информация : Audiо Vidео Intеrlеаvе
Размер файла : 815 Мбайт
Продолжительность : 50 м.
Общий поток : 2237 Кбит/сек
Библиотека кодирования : VirtuаlDub build 32842/rеlеаsе

Видео
Идентификатор : 0
Формат : MPEG-4 Visuаl
Профиль формата : Advаnсеd Simplе@L5
Параметр BVOP формата : 2
Параметр QPеl формата : Нет
Параметр GMC формата : Без точки перехода
Параметр матрицы формата : Dеfаult (H.263)
Режим смешивания : Сжатый битовый поток
Идентификатор кодека : XVID
Идентификатор кодека/Подсказка : XviD
Продолжительность : 50 м.
Битрейт : 2099 Кбит/сек
Ширина : 720 пикселей
Высота : 408 пикселей
Соотношение сторон : 16:9
Частота кадров : 25,000 кадров/сек
Цветовое пространство : YUV
Субдискретизация насыщенности : 4:2:0
Битовая глубина : 8 бит
Тип развёртки : Прогрессивная
Метод сжатия : С потерями
Бит/(Пиксели*Кадры) : 0.286
Размер потока : 765 Мбайт (94%)
Библиотека кодирования : XviD 65

Аудио
Идентификатор : 1
Формат : MPEG Audiо
Версия формата : Vеrsiоn 1
Профиль формата : Lауеr 3
Режим : Jоint stеrео
Расширение режима : MS Stеrео
Идентификатор кодека : 55
Идентификатор кодека/Подсказка : MP3
Продолжительность : 50 м.
Вид битрейта : Постоянный
Битрейт : 128 Кбит/сек
Каналы : 2 канала
Частота : 44,1 КГц
Метод сжатия : С потерями
Размер потока : 46,5 Мбайт (6%)
Выравнивание : Разделение по промежуткам
Продолжительность промежутка : 40 мс. (1,00 видеокадр)
Время предзагрузки промежутка : 501 мс.

Источник: myklad.org

Скачать видео ловля карпа торрент

Название: Современная и Подводная ловля Карпа Оригинальное название: UNDERWATER carp fishing Год выпуска:2007 Жанр: Учебный рыболовный фильм Выпущено: Великобритания Качество: DVDRip Видео: XVID 640×480 25.00fps 44100Hz Аудио: MPEG Audio Layer 3 48000Hz stereo 128Kbp Размер: 14,3 ГБ 6 фильмов по 2 части Продолжительность: 26:00:00 Перевод: Профессиональный, Одноголосый О фильме: Главная тема фильма — карп и все что связано с охотой на него — снасти, наживка, повадки.

Скачать фильмы о ловле карпа бесплатно. Главная · Вести с водоёмов · Статьи о рыбалке · Видео о рыбалке онлайн; Онлайн ТВ о рыбалке. 555HFTV.

Скачать фильмы Современная и Подводная ловля Карпа.6серий — ТОРРЕНТИНО — торрент трекер — бесплатно DVDRip

Скачать Подводная ловля карпа 2007 — ТОРРЕНТИНО — торрент трекер — бесплатно DVDRip

Рыбалка и охота » Скачать торрент Ловля карпа фидером на платнике ( Дмитрий Салапин) [2013, документальный, рыбалка, WEBRip].

Обсуждаем.критикуем фильмы о фидерной ловле. Кто хочет может скачать весь сборник на торрент трекере по этой ссылке: Для тех кто не может скачать фильмы Летний карп на фидер и Ловля весеннего.

Торрент трекер ТОРРЕНТИНО — скачайте Подводная ловля карпа 2007 через Перевод: Одноголосый закадровый, профессиональный фильм 1, ч.

Часть 11 Универсальный волос — русское ноу-хау +бонус Мировой рекорд в ловле карпа — 34 кг. Качество фильма неважное, зато уроки очень даже.

Оригинальное название: State of the Art Underwater Carp Fishing (f. 1-6 ) Год выпуска: 2004 Жанр: Рыболовство, обучающий Продолжительность: 12х

1:50:00 Режиссер: Денни Фаирбрасс/Корда В ролях: Денни Фаирбрасс, Ник Хэллер Описание: “Korda” всегда была заинтересована в том, чтобы рыбаки получали как можно больше информации не только о снастях и оборудовании, но и о жизни и повадках карпа в естественных условиях обитания.

Источник: glamarchive.weebly.com

Братья Щербаковы. Съедобные силиконовые приманки. Часть 2

Съедобные силиконовые приманки, часть 2 – продолжение обучающего видео из серии учебных фильмов о рыбалке братьев Щербаковых о приманках фирмы Бейт Бриз (Bait Breath). В этом видео продолжим разговор о съедобном силиконе, начатый в первой части фильма.
Первая часть видео была посвящена традиционным силиконовым съедобным приманкам Bait Breath. Во второй части братья Щербаковы расскажут о таких уловистых приманках как Раки и Креатуры.

Дикая рыбалка

Дикая рыбалка — сборник видео уроков выживания от Соколова Григория о способах изготовления некоторых рыболовных снастей из подручных средств.
В данных видеоуроках выживания в дикой природе Григорий поделится с любителями рыбалки технологиями изготовления нескольких рыболовных снастей из бересты, корня ивы, крапивы. А также несколько других советов на рыбалке.

Братья Щербаковы. Съедобные силиконовые приманки. Часть 1

Съедобные силиконовые приманки, часть 1 – видео из серии учебных фильмов о рыбалке братьев Щербаковых о мягких съедобных приманках.
Компания Бейт Бриз (Bait Breath) является одним из лидеров мирового рынка силиконовых приманок. Современный модельный ряд фирмы – это результат почти двух десятилетий напряжённой работы по поиску оптимальных форм, расцветок, а также ароматических и вкусовых формул.

Братья Щербаковы. Ловля на микроколебалки. Часть 2

Ловля на микроколебалки, часть 2 – продолжение обучающего видео о ловле на миниатюрные колеблющиеся блёсны из серии учебных фильмов о рыбалке братьев Щербаковых.
Рыбалка полна стереотипов. И чем больше увлекаешься рыбалкой, тем чаще эти стереотипы рушатся. Как можно было предположить, что маленькая, миниатюрная колеблющаяся блесна может оказаться для судака привлекательней, чем вкусный, съедобный традиционный джиг?

Ловля карася на фидер

Продолжаем серию видеоуроков о рыбалке Сергея Попова Рыбалка нового поколения. Следующий сюжет называется Ловля карася на фидер.
Данное видео посвящено ловле карася фидером в стоячей воде. Место ловли – степняк – мелкий водоём на Кубани, образовавшийся в результате запруды небольшой речушки, протекающей в степной местности.

Интернациональный фидер

Интернациональный фидер ― видео совместной рыболовной сессии, проведённой на Москва реке Андреем Думчевым (Россия) и Сергеем Поповым (Украина).
Ведущие рыболовы-спортсмены из соседних стран делятся личным опытом и рассказывают о нюансах фидерной рыбной ловли в сложных условиях.

Extra Heavy Feeder

Extra Heavy Feeder ― сюжет видеоприложения к иллюстрированному альбому о современной рыбалке Рыбалка нового поколения.
Сюжет посвящён посвящен ловле на сильном течении самой большой реки Украины ‒ Днепра ‒ с использованием фидеров класса Extra Heavy.

Фидер в коммерческом водоёме

Фидер в коммерческом водоёме ― видеосюжет Сергея Попова из цикла Рыбалка нового поколения, посвященный ловле карпа, амура и толстолоба на фидер.
Ловля проходила на знаменитом коммерческом водоёме, имеющем популяцию хорошего карпа, амура, толстолоба, а также карася, краснопёрки.

Ловля карпа

Ловля карпа ― продолжение видео Сергея Попова из серии видеоуроков по современной рыбалке ‒ Рыбалка нового поколения.
Видео освещает ловлю карпа и амура в коммерческом водоеме ‒ на озере Медвежка в Донецкой области.

Ночной фидер в городе

Ночной фидер в городе ― очередной сюжет видео приложения к иллюстрированному альбому о современной рыбалке ‒ Рыбалка нового поколения.
Мастер-класс Сергея Попова, посвященный ночной фидерной ловле в городской промышленной зоне.

Источник: video-ypoku.com

Скачать видео ловля карпа торрент

Как поймать карпа — Секреты успешной рыбалки. Оглавление: 5 секретов, которые помогут вам поймать Карпа.

Ловля леща фидером на реке Северский Донец в категории Рыбалка ( разное) на сайте рыбалка онлайн, где можно найти видео онлайн о ловле рыбы. Подборка лучших видео о ловле карпа. Речь в передаче пойдет о рыбалке на искусственно зарыбленном большом водоеме, Онлайн видео. Описание программы «Ловля сазана на донку»: Самые интересные факты о рыбалке. 12+ Продолжительность: 16:10. Категория: Активный отдых.

  • Скачать бесплатно, без регистрации фильмы о ловле на фидер. Мы находимся на Киевском водохранилище в поиске подлещика и леща. Одним из популярных способов ловли карпа можно назвать ловля его на бойлы.
  • Ловля карася на поплавочную удочку в пруду и на реке За 7 лет активного увлечения рыбалкой мною найдены десятки способов улучшить клёв.
  • Ловля карася на поплавочную удочку. Siandien Kimba Fishing Club " Summer Feeder" видео есть без перевода?! Ловля дикого карпа (сазана) на реке удочкой с боковым кивком — Duration: 11:57. Ловля карася и леща.
  • Рыбак видео для тебя. Проверь себя захотелось на рыбалку? Рыбалка на крупного карася осуществлялась летом на озере в Омской. Снасть на Плотву,Карася,Леща,Карпа.Рыбалка.Fishing — Duration: 5:27.
  • Рыбалка на карася. Подборка онлайн видео о способах ловли карася. Фильмы о снастях, наживках, прикормке на карася.
  • Видео о необычной наживки для ловли рыбы: карася, карпа, леща, плотвы, линя, окуня, сазана. Паблик ВК :http:// Мой .
  • Краткое описание всех видов фидерных оснасток . Монтажей фидерной снасти для ловли карпа, карася, леща и многих других рыб. Рыболовы, использующие трубочку с противозакручивателем, пошли.
  • Смотрите программу передач на текущие сутки. Ловля Вы можете посмотреть эту передачу полностью онлайн бесплатно. Ловля леща на кольцо — это не только увлекательно, но и уловисто. Ловля Белой Рыбы Бортовыми Удочками.
  • Сегодня представляем Вашему вниманию видео о ловле в мае на. Ловля сазанов и карасей на Москва-реке в мае от Андрея Думчева. На этой рыбалке Сергей использовал небольшой фидер (пикер) и матчевое удилище.

В этой статье я попытался охватить весь спектр советов о том , как и на что ловить Сазана и Карпа. Надеюсь вы найдете эти советы полезными для себя. Многие рыболовы ловлю Сазана и Карпа считают чрезвычайно увлекательным. А причина этого интереса в том, что эту рыбу не так легко поймать, как кажется. Карп в масштабах рыболова имеет репутацию одного из самых сложных вида рыб.

Для ловли Карпа и Сазана существует ряд методов и тактик, изучив которые вы намного облегчите себе задачу в поимке таких сильных рыб. Терпение. 1. Первое, что вы должны сделать – это терпеливо подойти к этому делу. Вы должны понимать, что ловить рыбу любого образца требует от рыболова огромного терпения, и вы должны быть готовы к тому, что смена места ловли и приманки бывает по несколько раз во время рыбалки. Вы должны понимать, что для того, чтобы поймать карпа необходимо начинать с ловли мелких рыб и уж только потом встретиться лицом к лицу с крупным Сазаном и Карпом. Подобрать приманку. Карп – рыба хитрая, в течение всей своей жизни они применяют механизмы выживания, которые приводят их становится осторожными, когда они сталкиваются с пищей, и поэтому вам нужно подобрать такую приманку, при которой Карп будет чувствовать себя счастливым и спокойным.

Метод ловли. 3. Вам нужно будет разработать метод и приемы ловли Карпа на конкретном водоеме, которые могут занять много времени. В дальнейшем это приведет вас к ловле рыбы крупного образца. Если ваш водоем, на котором вы собираетесь ловить комплектуется множеством мелких карпов, не пугайтесь, это фантастическое место, для того чтобы начать ловить рыб по 3 – 5 кг., и несомненно, поможет вам на пути тех, 3.

Снасти и оборудование. Снасти и оборудование для ловли карпа очень важны. На данный момент существует огромное множество снастей для ловли карпа , от малого до великого.

Нужно будет выбрать то удилище, которое наилучшим образом соответствует вашим собственным потребностям и бюджету. Наблюдательность.

Не бойтесь спрашивать других рыбаков о том, как и на что они ловят, какую тактику и метод ловли они применяют, которые находятся на водоеме вблизи вас, особенно, если они ловят, а у вас ни разу не клюнуло. Тем не менее, старайтесь придерживаться собственных методов и развивать те навыки с которыми в течением времени было бы справедливо сказать, что не только в книгах написаны наиболее распространенные методы ловли карпа на водоеме. Но и наиболее эффективно использовать самодельные приманки для ловли рыбы. Простой вопрос о том, как ловить карпа, который расстраивает многих рыболовов, не должен быть тем, что удерживает вас или заставляет вас чесать затылок.

Вы должны иметь возможность учиться и развивать новые навыки рыбалке, и тогда награда будет велика, и вы получите незабываемые приключения и приятный опыт на своем пути. Карповая рыбалка дает много приятных часов и дней удовольствия многим рыболовам. Эти советы, перечисленные выше только вершина айсберга тех методов, которые используют ведущие рыболовы.

Источник: europedagor907.weebly.com

Русская рыбалка 3.7.5 одиночная игра

Симуляторы разнообразных видов интересуют не только поклонников игр, но и игроков, которые не особо любят к примеру стрелялки и прочие игрушки, а вот в симулятор русской рыбалки поиграть совсем не прочь. Это обусловлено тем, что в симуляторах можно заняться любимым делом или приобрести навыки там, где не удалось реализовать себя в реальной жизни, но очень хотелось. ПК вариант игры Русская рыбалка 3.7.5 – классический симулятор рыбной ловли. Здесь игрок может развиваться, начав удить с одной удочкой. Со временем, снасти можно усовершенствовать, приобретать новые, продавая улов.

  • Дата выхода: 2009
  • Жанр: Симулятор Рыбалки
  • Разработчик: Installsoft
  • Издатель: Installsoft
  • Язык интерфейса: Русский
  • Язык озвучки: Отсутствует
  • Версия: 3.7.5 от 20 ноября 2014 года
  • Тип издания: Лицензия
  • Таблетка: Не требуется
  1. Работает на: Windows Vista / 7 / 8 / 8.1 / 10
  2. Процессор: 2.0 ГГц
  3. Оперативной памяти: 256 Мб
  4. Разрешение экрана: 1024×768
  5. DirectX 9.0c, .NET Framework 2.0, Visual C++
  6. Свободного места на жёстком диске: 750 Мб

Установка и запуск:

  1. Запускаем файлик installsoft.ru.exe
  2. Пароль на установщик — installsoft.ru или жмякаем указателем мыши по свинке
  3. Горячие клавиши установщика: пробел — выключить/включить фоновую музыку, backspace вернуться на предыдущую страницу
  4. Следуя подсказкам инсталлятора, настраиваем параметры установки
  5. Как завершится установка, идём и пробуем себя в увлекательном занятии — рыбной ловли!

Как правильно перенести профиль (для тех кто хочет обновить предыдущую версию):

  1. Запускаем прежнюю версию игры
  2. Продаём или отпускаем всю рыбку в садке
  3. Далее, вернитесь на базу Деревенские просторы, сохранитесь и выйдите из игры
  4. Скопируйте в отдельное место файлы вашего профиля: папку «Profiles» и файл «Data\Tabrecords.txt»
  5. Удалите прежнюю версию игры
  6. Установите Русскую Рыбалку 3.7.5 и перенесите в папку с ней файлы вашего профиля (см. п. 4)
  7. Всё, запускаем игру и наслаждаемся!
  • Копия официального клиента для игры
  • Идея и разработка: Kote, install
  • Дизайн игры: install
  • Графика для игры: ondry, fasenda, Mishuk, Aleks7777
  • Установщик игры: install
  • Таблица рекордов: Ксеркс, install
  • В симуляторе Русская рыбалка 3.7.5 есть свои хитрости. Вам предстоит их познать в увлекательном процессе ловли…
  • Используя запрещённые приёмы ловли, нужно быть предельно аккуратным и не попасться Рыбнадзору.
  • Повадки рыб, идентичны их поведению в реальной жизни.
  • В игре представлены сотни различных наживок, прикормок, блесен, снастей.
  • Можно ловить всё, от плотвы до заморских пираний и аллигаторов. Главное, по уму подобрать наживку и оснащение, поскольку в игре все предметы и способы ловли идентичны реальным образцам.
  • По большому счёту, можно сказать, что данная игрушка – это своеобразное пособие для начинающего рыбака и виртуальное удовольствие для знающих рыболовов.

Видео обзор игры Русская рыбалка 3.7.5:

Источник: igryday.ru

Секреты и хитрости ловли окуня зимой (2013)

Зимой ловля окуня самая доступная и увлекательная рыбалка поскольку именно окунь является одним из самых широко распространенных видов рыб. Практически во всех районах России в декабре на водоемах образовывается ледяной покров. Ловля окуня зимой заключается в его постоянном поиске. При этом количество и качество пойманного окуня будет прямо пропорционально количеству ваших лунок. Ловля окуня зимой — это активная поисковая рыбалка. Пробурив с десяток лунок нужно каждую прикормить мормышем, можно с добавлением мотыля. Через не большой промежуток времени можно начать ловить окуня в этих лунках. Если окунь ловится в одной из лунок, то нужно его не распугать и вести себя максимально тихо. Не плохо будет если Вы периодически будете сыпать в лунку щепоть мормыша для постоянного прикорма. Если клев прекратился, то следует идти на другую лунку. Ловля окуня зимой чаще всего происходит на мормышку, но есть и рыболовы которые предпочитают ловить окуня на блесны или балансиры. Ловля окуня зимой самое увлекательное занятие особенно если окунь спортивного размера. Спортивные соревнования по ловле на мормышку чаще всего превращаются в ловлю спортивного окуня зимой. Именно ловля мелкого окуня приносит победу спортсменам.

Информация о фильме:
Название: Секреты и хитрости ловли окуня зимой
Год: 2013
Жанр: Видеоурок

Выпущено: Россия
Перевод: не требуется
Продолжительность: 15 мин

Файл:
Качество: DVDRip
Формат: WMV
Audio: 48000 Hz, stereo, 256 kb/s
Video: vc1 video, yuv420p, 1280×720, 25 fps(r)
Размер: 871.3 MB

Скачать Секреты и хитрости ловли окуня зимой (2013) DVDRip

Источник: quantum-soft.net

Скачать видео ловля карпа торрент

Скачать фильм Ловля карпа фидером на платнике (2. Общее. Полное имя : D: \1.

Часть 1 Монтаж бойла Часть 2 Плавающий бойл Часть 3 Прикармливание ракетой Часть 4 Приготовление прикормки Часть 5 Прикармливание. Добавить торрент. Ловля дикого карпа. (Алексей Фадеев) [2013, документальный, рыбалка, WEBRip-AVC] (Видеоурок).
Ловля дикого карпа 2013 Страна: Россия Тематика: Рыбалка Тип раздаваемого материала: Видеоурок Продолжительность:

00:28:48 Год выпуска: 2013 Язык. / Рыболовный видео-журнал ‘ Сибирь ‘ №3. Ловля карпа от поплавка до бойла. (Александр Васильев) [2009 г.] (Док.фильмы о рыбалке(учебный)) [DVDRip].
Zhurnal 3 Lovlla karpa 2009[piratca.org].avi.

Открытие сезона — за судаком (2015) WEBRip — торрент. 13-ноя-2015 Весенний фидер — ловля карпа на пруду (2015) WEBRip — торрент. 12-ноя- 2015. Акклиматизирован карп. Ловля карпа в основном происходит в зарослях камыша на поплавковую удочку с лодки. Обычно рыболовы. Ловля карпа на фидер / Lov kapru feederem (2010) DVDRip.
Год выпуска: 2010 Страна: Чехия Жанр: документальный, рыбалка Продолжительность: 01:24:04 Режиссер: P.Bretislav В ролях: Milan Tychler, Martin Matak Описание: Новый чешский фильм о карповой ловле на фидер. Рыбалка и охота » Скачать торрент Ловля карпа фидером на платнике (Дмитрий Салапин) [2013, документальный, рыбалка, WEBRip].

Ловля карпа фидером на платнике. Формат : AVI. Формат/Информация : Audio Video Interleave.

Размер файла : 1,2. Гбайт. Продолжительность : 1 ч.

Общий поток : 2. Кбит/сек. Библиотека кодирования : Virtual. Dub build 3. 28. 42/release. Идентификатор : 0.

Формат : MPEG- 4 Visual. Профиль формата : Advanced Simple@L5. Параметр BVOP формата : 2. Параметр QPel формата : Нет. Параметр GMC формата : Без точки перехода.

Параметр матрицы формата : Default (H. Режим смешивания : Сжатый битовый поток.

Идентификатор кодека : XVID. Идентификатор кодека/Подсказка : Xvi. D. Продолжительность : 1 ч. Битрейт : 1. Кбит/сек. Ширина : 7. Высота : 4. Соотношение сторон : 1.

Частота кадров : 2. Цветовое пространство : YUV.

Субдискретизация насыщенности : 4: 2: 0. Битовая глубина : 8 бит.

Тип развёртки : Прогрессивная. Метод сжатия : С потерями. Бит/(Пиксели*Кадры) : 0. Размер потока : 1,1. Гбайт (9. 3%). Библиотека кодирования : Xvi. D 7. 3. Идентификатор : 1. Формат : MPEG Audio.

Версия формата : Version 1. Профиль формата : Layer 3. Режим : Joint stereo. Расширение режима : MS Stereo. Идентификатор кодека : 5.

Идентификатор кодека/Подсказка : MP3. Продолжительность : 1 ч. Вид битрейта : Постоянный. Битрейт : 1. Кбит/сек. Каналы : 2 канала. Частота : 4.

КГц. Метод сжатия : С потерями. Размер потока : 7. Мбайт (6%). Выравнивание : Разделение по промежуткам. Продолжительность промежутка : 3. Время предзагрузки промежутка : 5.

Источник: darkcheater370.weebly.com